Baaghi 2 (2018) [Hindi - HDRip - x264 - Torrent Free Download

Seeders : 203   &   Leechers : 632      17-04-2018 (1 week)
Baaghi 2 (2018) [Hindi - HDRip - x264 - Torrent Download
Added: ago by RockerS ***** in Movies   698.6 MB   Hits : 18
Info Hash: D3B6E2B90DADF9802D2AC6428215C8CE274BC88A Download
Baaghi 2 (2018) [Hindi - HDRip - x264 - Torrent Download

Anonymous and Direct Download movies , software , shows...

Fast Safe Anonymous
movies, software, shows...
Baaghi
Action /Romance  .   133 min   5.2/10
Director : Sabir Khan  
Writer: Sanjeev Datta  
Tags: Baaghi  2  (2018)  [Hindi  -  HDRip  

Released:
29 Apr 2016
Shortly after arriving at a martial arts academy, a troubled young man falls for the girl being wooed by his rival.

Torrent Description



Baaghi 2 (2018) [Hindi - HDRip - x264 - 700MB] - Team TR


SAMPLE

SCREENSHOTS

Team TamilRockers Exclusive

Source : DesireMovies (Thanks a lot)

MEDIA INFO
General
Format                         : Matroska
Format version                 : Version 4 / Version 2
File size                      : 704 MiB
Duration                       : 2 h 27 min
Overall bit rate               : 666 kb/s

Video
ID                             : 1
Format                         : AVC
Format/Info                    : Advanced Video Codec
Duration                       : 2 h 27 min
Bit rate                       : 618 kb/s
Width                          : 720 pixels
Height                         : 320 pixels
Display aspect ratio           : 2.25:1
Frame rate mode                : Constant
Frame rate                     : 25.000 FPS
Stream size                    : 651 MiB (93%)
Language                       : Hindi
Default                        : Yes
Forced                         : No


Audio
ID                             : 2
Format                         : MPEG Audio
Format version                 : Version 1
Format profile                 : Layer 3
Format settings                : Joint stereo / MS Stereo
Codec ID                       : A_MPEG/L3
Codec ID/Hint                  : MP3
Duration                       : 2 h 27 min
Bit rate mode                  : Constant
Bit rate                       : 48.0 kb/s
Channel(s)                     : 2 channels
Sampling rate                  : 48.0 kHz
Frame rate                     : 41.667 FPS (1152 SPF)
Compression mode               : Lossy
Delay relative to video        : -23 ms
Stream size                    : 50.7 MiB (7%)
Language                       : Hindi
Default                        : Yes
Forced                         : No





Sharing Widget


No Comments For This Torrent . Be The First to Comment

You must Login to Comment . Click Here to Login

Menu 1

Some content in menu 1.

Baaghi 2 (2018) [Hindi - HDRip - x264 - 700MB] - Team TR (Size: 698.6 MB)
  Baaghi 2 (2018) [Hindi - HDRip - x264 - 700MB] - Team TR 698.6 MB
tracker name
udp://tracker.leechers-paradise.org:6969/announce
udp://zer0day.ch:1337/announce
udp://open.demonii.com:1337/announce
udp://tracker.coppersurfer.tk:6969/announce
udp://exodus.desync.com:6969/announce
µTorrent compatible trackers list

Relative Torrents

Torrent Name Size Age SEED LEECH
The Shanghai Job 2017 1080p Bluray X264-VO[EtHD]
Posted by    EtHD   in   Movies
10.2 GB 1 minute 272 577
Avengers Infinty War 2018 CAMRIP X264 [GekyApk] [600MB]
Posted by    geekyapk   in   Movies
527.2 MB 1 minute 213 988
Hitman A 47 es ugynok 2015 HUN 720p mHDx264-Gepont
Posted by    iDope   in   Video
2.9 GB 4 minutes 35 692
1995 McDonald's All-American H S Slm Jam avi
Posted by    iDope   in   Video
746.2 MB 4 minutes 904 727
Stargate SG-1 S01E14 XviD-AFG[TGx]
Posted by    mazemaze16   in   TV
299.7 MB 8 minutes 852 199