Black Panther 2018 NEW PROPER HD-TS X264 Torrent Free Download

Seeders : 339   &   Leechers : 620      17-04-2018 (1 week)
Black Panther 2018 NEW PROPER HD-TS X264 Torrent Download
Added: ago by LifeLongg ***** in Movies   1.2 GB   Hits : 16
Info Hash: 3F6710DC471EFE64C4C6F60EFC5362C62CDF6072 Download
Black Panther 2018 NEW PROPER HD-TS X264 Torrent Download

Anonymous and Direct Download movies , software , shows...

Fast Safe Anonymous
movies, software, shows...
Black Panther
Action /Adventure /Sci-Fi  .   134 min   7.8/10
Director : Ryan Coogler  
Tags: Black  Panther  2018  NEW  PROPER  HD-TS  

Released:
16 Feb 2018
After the events of Captain America: Civil War, King T'Challa returns home to the reclusive, technologically advanced African nation of Wakanda to serve as his country's new leader. However, T'Challa soon finds that he is challenged for the throne from factions wit.... See More hin his own country. When two foes conspire to destroy Wakanda, the hero known as Black Panther must team up with C.I.A. agent Everett K. Ross and members of the Dora Milaje, Wakanadan special forces, to prevent Wakanda from being dragged into a world war.

Torrent Description







******************************Thumbnail:**********************



******************************Screenshots:********************

Screenshot 1

Screenshot 2

Screenshot 3

Screenshot 4

Screenshot 5

Screenshot 6

Screenshot 7

Screenshot 8

Screenshot 9

Screenshot 0

**************************************************************

Complete name : Black.Panther.2018.NEW.PROPER.HD-TS.X264.MP3.128Kbps.LLG.mp4
Format : MPEG-4
Format profile : Base Media
Codec ID : isom (isom/iso2/avc1/mp41)
File size : 1.16 GiB
Duration : 2 h 4 min
Overall bit rate : 1 332 kb/s
Writing application : Lavf57.56.101

Video
ID : 1
Format : AVC
Format/Info : Advanced Video Codec
Format profile : [email protected]
Format settings : CABAC / 4 Ref Frames
Format settings, CABAC : Yes
Format settings, RefFrames : 4 frames
Codec ID : avc1
Codec ID/Info : Advanced Video Coding
Duration : 2 h 4 min
Bit rate : 1 200 kb/s
Width : 720 pixels
Height : 320 pixels
Display aspect ratio : 2.25:1
Frame rate mode : Constant
Frame rate : 23.976 (23976/1000) FPS
Color space : YUV
Chroma subsampling : 4:2:0
Bit depth : 8 bits
Scan type : Progressive
Bits/(Pixel*Frame) : 0.217
Stream size : 1.04 GiB (90%)


Audio
ID : 2
Format : MPEG Audio
Format version : Version 1
Format profile : Layer 3
Format settings : Joint stereo / MS Stereo
Codec ID : mp4a-6B
Duration : 2 h 4 min
Bit rate mode : Constant
Bit rate : 128 kb/s
Channel(s) : 2 channels
Sampling rate : 44.1 kHz
Compression mode : Lossy
Stream size : 114 MiB (10%)
Writing library : LAME3.99.5
Default : Yes
Alternate group : 1




Sharing Widget


No Comments For This Torrent . Be The First to Comment

You must Login to Comment . Click Here to Login

Menu 1

Some content in menu 1.

Black Panther 2018 NEW PROPER HD-TS X264 MP3 128Kbps LLG (Size: 1.2 GB)
  Black Panther 2018 NEW PROPER HD-TS X264 MP3 128Kbps LLG 1.2 GB
tracker name
udp://tracker.leechers-paradise.org:6969/announce
udp://zer0day.ch:1337/announce
udp://open.demonii.com:1337/announce
udp://tracker.coppersurfer.tk:6969/announce
udp://exodus.desync.com:6969/announce
µTorrent compatible trackers list

Relative Torrents

Torrent Name Size Age SEED LEECH
The Shanghai Job 2017 1080p Bluray X264-VO[EtHD]
Posted by    EtHD   in   Movies
10.2 GB 1 minute 272 577
Avengers Infinty War 2018 CAMRIP X264 [GekyApk] [600MB]
Posted by    geekyapk   in   Movies
527.2 MB 1 minute 213 988
Hitman A 47 es ugynok 2015 HUN 720p mHDx264-Gepont
Posted by    iDope   in   Video
2.9 GB 4 minutes 35 692
SketchUp Pro 2018 v21 0 16980 + Plug-insPack
Posted by    iDope   in   Apps
13.4 MB 10 minutes 617 184
Adobe Photoshop Lightroom Classic CC 201 v9 4 1 13
Posted by    iDope   in   Apps
18.8 MB 10 minutes 190 908