Mercur S01 E07 - 720p x264 - DAN (ENG SU Torrent Free Download

Seeders : 508   &   Leechers : 666      16-05-2018 (5 days)
Mercur S01 E07 - 720p x264 - DAN (ENG SU Torrent Download
Added: ago by Baryshnikov ***** in TV   516.2 MB   Hits : 15
Info Hash: 716EFE8D62331F8C21DE6266B06AE4C6CFDCFF68 Download
Mercur S01 E07 - 720p x264 - DAN (ENG SU Torrent Download

Anonymous and Direct Download movies , software , shows...

Fast Safe Anonymous
movies, software, shows...

Torrent Description



Inspired by real events, Something's Rockin' tells the fascinating story of the rise and fall of "Radio Mercur", a pirate radio station founded by a small group of music-loving dreamers in the late fifties.










Tech:

Format : MPEG-4
Format profile : Base Media / Version 2
Codec ID : mp42
File size : 516 MiB
Duration : 41mn 4s
Overall bit rate mode : Variable
Overall bit rate : 1 757 Kbps
Movie name : Mercur S01 E07 - x264 [BRSHNKV]
Encoded date : UTC 2018-05-11 11:24:13
Tagged date : UTC 2018-05-11 11:24:13
Writing application : HandBrake 1.0.2 2017012200

Video
ID : 1
Format : AVC
Format/Info : Advanced Video Codec
Format profile : [email protected]
Format settings, CABAC : Yes
Format settings, ReFrames : 8 frames
Codec ID : avc1
Codec ID/Info : Advanced Video Coding
Duration : 41mn 4s
Bit rate : 1 600 Kbps
Width : 1 024 pixels
Height : 576 pixels
Display aspect ratio : 16:9
Frame rate mode : Constant
Frame rate : 25.000 fps
Color space : YUV
Chroma subsampling : 4:2:0
Bit depth : 8 bits
Scan type : Progressive
Bits/(Pixel*Frame) : 0.109
Stream size : 470 MiB (91%)
Writing library : x264 core 148 r2708 86b7198
Encoded date : UTC 2018-05-11 11:24:13
Tagged date : UTC 2018-05-11 11:24:13
Color range : Limited
Color primaries : BT.601 PAL
Transfer characteristics : BT.709
Matrix coefficients : BT.601

Audio
ID : 2
Format : AAC
Format/Info : Advanced Audio Codec
Format profile : LC
Codec ID : 40
Duration : 41mn 4s
Bit rate mode : Variable
Bit rate : 151 Kbps
Channel(s) : 2 channels
Channel positions : Front: L R
Sampling rate : 48.0 KHz
Compression mode : Lossy
Stream size : 44.5 MiB (9%)
Title : Stereo / Stereo
Language : Danish
Encoded date : UTC 2018-05-11 11:24:13
Tagged date : UTC 2018-05-11 11:24:13




Sharing Widget


No Comments For This Torrent . Be The First to Comment

You must Login to Comment . Click Here to Login

Menu 1

Some content in menu 1.

Mercur S01 E07 - 720p x264 - DAN (ENG SUBS) [BRSHNKV] (Size: 516.2 MB)
  Mercur S01 E07 - 720p x264 - DAN (ENG SUBS) [BRSHNKV] 516.2 MB
tracker name
udp://tracker.leechers-paradise.org:6969/announce
udp://zer0day.ch:1337/announce
udp://open.demonii.com:1337/announce
udp://tracker.coppersurfer.tk:6969/announce
udp://exodus.desync.com:6969/announce
µTorrent compatible trackers list

Relative Torrents

Torrent Name Size Age SEED LEECH
Homes Under The Hammer S19E48 480p x264-SD[TGx]
Posted by    mazemaze16   in   TV
222.6 MB 7 minutes 585 695
A Quiet Place 2018 720p HC HDRip X264 AC-EVO
Posted by    Trige   in   Movies
2.5 GB 12 minutes 526 976
A Quiet Place 2018 720p HC HDRip X264 AC-EVO[TGx]
Posted by    mazemaze16   in   Movies
2.5 GB 21 minutes 668 194
A Quiet Place 2018 720p HC HDRip X264 AC-EVO[N1C]
Posted by    NO1CARES   in   Movies
2.5 GB 21 minutes 621 934
A Quiet Place 2018 720p HC HDRip X264 AC-EVO[EtHD]
Posted by    EtHD   in   Movies
2.5 GB 21 minutes 46 680