Mercur S01 E07 - 720p x265 HEVC - DAN (E Torrent Free Download

Seeders : 719   &   Leechers : 899      16-05-2018 (5 days)
Mercur S01 E07 - 720p x265 HEVC - DAN (E Torrent Download
Added: ago by Baryshnikov ***** in TV   369.6 MB   Hits : 15
Info Hash: 08ED944209F1E1F3DA1CA9D79E7F3CF41354F8A9 Download
Mercur S01 E07 - 720p x265 HEVC - DAN (E Torrent Download

Anonymous and Direct Download movies , software , shows...

Fast Safe Anonymous
movies, software, shows...

Torrent Description



Inspired by real events, Something's Rockin' tells the fascinating story of the rise and fall of "Radio Mercur", a pirate radio station founded by a small group of music-loving dreamers in the late fifties.









Tech:

Format : MPEG-4
Format profile : Base Media / Version 2
Codec ID : mp42
File size : 370 MiB
Duration : 41mn 4s
Overall bit rate mode : Variable
Overall bit rate : 1 258 Kbps
Movie name : Mercur S01 E07 - x265 HEVC [BRSHNKV]
Encoded date : UTC 2018-05-14 18:57:46
Tagged date : UTC 2018-05-14 18:57:46
Writing application : HandBrake 20160211184813-ffd8cb1-master 2016021301

Video
ID : 1
Format : HEVC
Format/Info : High Efficiency Video Coding
Format profile : Main [email protected]@Main
Codec ID : hev1
Codec ID/Info : High Efficiency Video Coding
Duration : 41mn 4s
Bit rate : 1 101 Kbps
Width : 1 024 pixels
Height : 576 pixels
Display aspect ratio : 16:9
Frame rate mode : Constant
Frame rate : 25.000 fps
Color space : YUV
Chroma subsampling : 4:2:0
Bit depth : 10 bits
Bits/(Pixel*Frame) : 0.075
Stream size : 323 MiB (87%)
Writing library : x265 1.9:[Mac OS X][clang 7.0.2][64 bit] 10bit
Encoded date : UTC 2018-05-14 18:57:46
Tagged date : UTC 2018-05-14 18:57:46
Color range : Limited
Color primaries : BT.601 PAL
Transfer characteristics : BT.709
Matrix coefficients : BT.601

Audio
ID : 2
Format : AAC
Format/Info : Advanced Audio Codec
Format profile : LC
Codec ID : 40
Duration : 41mn 4s
Bit rate mode : Variable
Bit rate : 151 Kbps
Channel(s) : 2 channels
Channel positions : Front: L R
Sampling rate : 48.0 KHz
Compression mode : Lossy
Stream size : 44.5 MiB (12%)
Title : Stereo / Stereo
Language : Danish
Encoded date : UTC 2018-05-14 18:57:46
Tagged date : UTC 2018-05-14 18:57:46




Sharing Widget


No Comments For This Torrent . Be The First to Comment

You must Login to Comment . Click Here to Login

Menu 1

Some content in menu 1.

Mercur S01 E07 - 720p x265 HEVC - DAN (ENG SUBS) [BRSHNKV] (Size: 369.6 MB)
  Mercur S01 E07 - 720p x265 HEVC - DAN (ENG SUBS) [BRSHNKV] 369.6 MB
tracker name
udp://tracker.leechers-paradise.org:6969/announce
udp://zer0day.ch:1337/announce
udp://open.demonii.com:1337/announce
udp://tracker.coppersurfer.tk:6969/announce
udp://exodus.desync.com:6969/announce
µTorrent compatible trackers list

Relative Torrents

Torrent Name Size Age SEED LEECH
Homes Under The Hammer S19E48 480p x264-SD[TGx]
Posted by    mazemaze16   in   TV
222.6 MB 10 minutes 585 695
A Quiet Place 2018 720p HC HDRip X264 AC-EVO
Posted by    Trige   in   Movies
2.5 GB 15 minutes 526 976
A Quiet Place 2018 720p HC HDRip X264 AC-EVO[TGx]
Posted by    mazemaze16   in   Movies
2.5 GB 24 minutes 668 194
A Quiet Place 2018 720p HC HDRip X264 AC-EVO[N1C]
Posted by    NO1CARES   in   Movies
2.5 GB 24 minutes 621 934
A Quiet Place 2018 720p HC HDRip X264 AC-EVO[EtHD]
Posted by    EtHD   in   Movies
2.5 GB 24 minutes 46 680