Red Sparrow 2018 HC 720p HDRip Eng Audio Torrent Free Download

Seeders : 309   &   Leechers : 192      16-04-2018 (6 days)
Red Sparrow 2018 HC 720p HDRip Eng Audio Torrent Download
Added: ago by LifeLongg ***** in Movies   1.4 GB   Hits : 19
Info Hash: D003D5A46C770768522D6988B4C6EAD574163E49 Download
Red Sparrow 2018 HC 720p HDRip Eng Audio Torrent Download

Anonymous and Direct Download movies , software , shows...

Fast Safe Anonymous
movies, software, shows...
Red Sparrow
Drama /Mystery /Thriller  .   140 min   6.8/10
Director : Francis Lawrence  
Tags: Red  Sparrow  2018  HC  720p  HDRip  

Released:
02 Mar 2018
Ballerina Dominika Egorova is recruited to 'Sparrow School,' a Russian intelligence service where she is forced to use her body as a weapon. Her first mission, targeting a C.I.A. agent, threatens to unravel the security of both nations.

Torrent Description







******************************Thumbnail:**********************



******************************Screenshots:********************

Screenshot 1

Screenshot 2

Screenshot 3

Screenshot 4

Screenshot 5

Screenshot 6

Screenshot 7

Screenshot 8

Screenshot 9

Screenshot 0

**************************************************************

Complete name : Red.Sparrow.2018.HC.720p.HDRip.Eng.Audio.KorSub.With.Sample.LLG.mp4
Format : MPEG-4
Format profile : Base Media
Codec ID : isom (isom/iso2/avc1/mp41)
File size : 1.37 GiB
Duration : 2 h 15 min
Overall bit rate : 1 445 kb/s
Writing application : Lavf57.56.101

Video
ID : 1
Format : AVC
Format/Info : Advanced Video Codec
Format profile : [email protected]
Format settings : CABAC / 4 Ref Frames
Format settings, CABAC : Yes
Format settings, RefFrames : 4 frames
Codec ID : avc1
Codec ID/Info : Advanced Video Coding
Duration : 2 h 15 min
Bit rate : 1 200 kb/s
Width : 1 904 pixels
Height : 800 pixels
Display aspect ratio : 2.40:1
Frame rate mode : Constant
Frame rate : 29.970 (29970/1000) FPS
Color space : YUV
Chroma subsampling : 4:2:0
Bit depth : 8 bits
Scan type : Progressive
Bits/(Pixel*Frame) : 0.026
Stream size : 1.12 GiB (82%)

Audio
ID : 2
Format : AC-3
Format/Info : Audio Coding 3
Codec ID : ac-3
Duration : 2 h 15 min
Bit rate mode : Constant
Bit rate : 256 kb/s
Channel(s) : 2 channels
Channel positions : Front: L R
Sampling rate : 48.0 kHz
Frame rate : 31.250 FPS (1536 SPF)
Bit depth : 16 bits
Compression mode : Lossy
Stream size : 249 MiB (18%)
Language : English
Service kind : Complete Main
Default : Yes
Alternate group : 1




Sharing Widget


No Comments For This Torrent . Be The First to Comment

You must Login to Comment . Click Here to Login

Menu 1

Some content in menu 1.

Red Sparrow 2018 HC 720p HDRip Eng Audio KorSub With Sample LLG (Size: 1.4 GB)
  Red Sparrow 2018 HC 720p HDRip Eng Audio KorSub With Sample LLG 1.4 GB
tracker name
udp://tracker.leechers-paradise.org:6969/announce
udp://zer0day.ch:1337/announce
udp://open.demonii.com:1337/announce
udp://tracker.coppersurfer.tk:6969/announce
udp://exodus.desync.com:6969/announce
µTorrent compatible trackers list

Relative Torrents

Torrent Name Size Age SEED LEECH
Ajab Gazabb Love (2012) Hindi WEBHD 720px264 AC3 MAXPRO mkv
Posted by    iDope   in   Video
1.2 GB 1 minute 782 570
Westworld S02E01 Journey Into Night 720pAMZN WEB-DL DDP5 1 H 264-NTb
Posted by    MrStark   in   TV
2.0 GB 2 minutes 700 981
Hawaii Five-0 S08E21 Ahuwale Ka Nane Hun 720p AMZN WEB-DL DDP5 1 H 264-NTb[TGx]
Posted by    mazemaze16   in   TV
1.4 GB 2 minutes 165 100
Taken 202 [HDTv SPA] 720p mkv
Posted by    iDope   in   Video
670.4 MB 7 minutes 22 677
[HorribleSubs] Caligula - 03 [720p] mkv
Posted by    iDope   in   Video
322.1 MB 7 minutes 176 265